Album Info: Featuring legendary artists Bob Dylan, George Harrison, Jeff Lynne, Roy Orbison, and Tom Petty, the Traveling Wilburys were a one-of-a-kind musical phenomenon. 1 [Picture Disc] George Harrison. Utilizziamo cookie e altre tecnologie simili per migliorare la tua esperienza di acquisto, per fornire i nostri servizi, per capire come i nostri clienti li utilizzano in modo da poterli migliorare e per visualizzare annunci pubblicitari. Vinyl. 1, in 1988. 3 will be reissued on 180 gram vinyl on October 4 as part of Record Store Day’s Vinyl Tuesday.. With ‘The Traveling Wilburys Vol 1’, Bob Dylan, George Harrison, Tom Petty, Roy … Anche terzi autorizzati utilizzano queste tecnologie in relazione alla nostra visualizzazione di annunci pubblicitari. Genre: Pop Rock. 3 (both Mystery Girl and Petty's 1989 solo debut Full … Music Reviews: Traveling Wilburys Vol. Acquista il CD album Vol 1 (Remastered) di The Traveling Wilburys in offerta; album e dischi in vendita online a prezzi scontati su La Feltrinelli. Forums | Traveling Wilburys Volume 1 CD - used in good condition Returnable if found to be not playable … Twitter | 1 starts the album and then it is followed by vol. 1.wav. This expanded & remastered edition of the Wilburys’ GRAMMY-winning 1988 debut album, Traveling Wilburys Volume 1, is now available after being out-of-print for over a decade. 3. Free Download Traveling Wilburys - Traveling Wilburys Vol. It would be quite appropriate to inquire about vol. Following Orbison's death in December 1988, the Wilburys released a second album, which they titled Traveling Wilburys Vol. 3 is the second and final studio album by the Traveling Wilburys, a group consisting of George Harrison, Jeff Lynne, Bob Dylan and Tom Petty.It was released on October 29, 1990 as the follow-up to their 1988 debut, Traveling Wilburys Vol. Reviewed in the United States on August 20, 2020. 1 ~ Release by Traveling Wilburys (see all versions of this release, 14 available) Overview; Disc IDs (1) Cover Art (3) Aliases; Tags; Details; Edit; Edit Relationships; Cover Art. In 1990, the album won the Grammy for Best Rock Performance by a Duo or Group. [Cover rear:] Manufactured by Warner Bros. Music, Inc. 1 by Traveling Wilburys. 1 is the debut studio album by the English-American supergroup Traveling Wilburys, comprising George Harrison, Jeff Lynne, Bob Dylan, Roy Orbison and Tom Petty.It was released in October 1988 to commercial success and critical acclaim. It was released in October 1988 as their debut single and as the opening track of their album Traveling Wilburys Vol. The remaining quartet regrouped in 1990 for a second album that was flippantly titled The Traveling Wilburys, Vol. Barnes & Noble® has the best selection of Pop Adult Contemporary CDs. Donate | Check out our album review of Artist's Traveling Wilburys Vol. Cover Art provided by the Cover Art Archive. ... full condensed blue highlight denotes album pick Filter Discography By Albums Compilations Singles & EPs All. Blog | Provare di nuovo. Traveling Wilburys Volume 1 on CD. Buy The Traveling Wilburys's album titled The Traveling Wilburys, Vol. The group, with the aid of session drummer Jim Keltner, recorded their first record, The Traveling Wilburys Vol. Filename G:\CD\Traveling Wilburys – Vol. Brought to you by MetaBrainz Foundation and our sponsors and supporters. Year Album Label Amazon ha riscontrato un errore. AccurateRip summary. Utilizza un altro modo per la condivisione. 3 in Discogs. The Traveling Wilburys Vol. The Traveling Wilburys Collection is a box set compilation album by the British-American supergroup the Traveling Wilburys.It comprises the two studio albums recorded by the band in 1988 and 1990, with additional bonus tracks, and a DVD containing their music videos and a documentary about the group. Traveling Wilburys Volume 3 was recorded without Orbison, who died in December 1988, but its songs are still full of the heart and spirit that made their musical brotherhood the stuff of legend. The Traveling Wilburys would convene once again as a four-piece in 1990 with the cheekily titled Vol. Traveling Wilburys Vol. 1' (spines) / 'Volume One' (disc). The Traveling Wilburys, Vol. 2 is Tom Petty's album Fool Moon Fever … Peak level 98.6 % Extraction speed 5.0 X Range quality 100.0 % Test CRC 2EC88BEE Copy CRC 2EC88BEE Copy OK. No errors occurred. And although it yielded some catchy songs, such as "She's My Baby" and "Poor House," the group just didn't pack the same punch that they had with Orbison in the mix. The Traveling Wilburys was big enough to convince the group to record a second album, cheerfully and incongruously titled Vol. Bug Tracker | It was when I saw them perform recently on … 1 to enjoy in your home or car, or gift it to another music lover! Sembra che WhatsApp non sia installato sul tuo cellulare. ‘The Traveling Wilburys Vol 1’: The Start Of A Beautiful Journey. 1.The band members again adopted pseudonyms for their contributions, using new names from the fictitious Wilbury brothers. Album Packaging: Jewel Case Status: Official … 1 full album lyrics from lyrics007.com Although Harrison envisaged a series of Wilburys albums and a film about the band, produced through his company HandMade, the group's final release was in February 1991. Piccoli prezzi ogni giorno. These images provided by the Cover Art Archive. 3, in 1990. No one has reviewed this release group yet. IRC | 3. Track 1 accurately ripped (confidence 200) [A4259F6A] (AR v2) Track 2 accurately ripped (confidence 200) [E2235F66] (AR v2) Some people consider that vol. Listen to Traveling Wilburys, Vol. 2 here, but don't worry, everything stands on its places. Traveling Wilburys originally released End of the Line written by George Harrison, Jeff Lynne, Roy Orbison, Tom Petty and Bob Dylan and Traveling Wilburys released it on the album Traveling Wilburys Vol 1 in 1988. Audio CD. You can also see them at the Internet Archive. Compra Traveling Wilburys 1. ... Chris Cornell’s Posthumous Covers Album ‘No One Sings Like You Anymore’ Released 1 by Traveling Wilburys released in 1988 via Wilbury. See the the cover photos, artwork, and latest images for Traveling Wilburys, Vol. 4.8 out of 5 stars 1,173. Pirated compact discs damage your … Beware! Si è verificato un problema durante il salvataggio delle preferenze relative ai cookie. 1 on Rolling Stone.com. Although Harrison had long planned to start such a band, the project came about through happenstance. Siamo spiacenti. The Traveling Wilburys, Vol. Completa la tua Collezione su Traveling Wilburys. "Handle with Care" is a song by the British-American supergroup the Traveling Wilburys. Wiki | [Booklet:] Wilbury Record Company is a subdivision of the Trans-Wilbury Corporation of Bulgaria. October 17: The Traveling Wilburys released their debut album Volume 1 in 1988 Posted on October 17, 2020 by Hallgeir Olsen The Traveling Wilburys (sometimes shortened to the Wilburys) were a British-American supergroup consisting of Bob Dylan, George Harrison, Jeff … 3, two years later despite the death of Orbison. 3: Concord / Universal ... Find The Traveling Wilburys discography, albums and singles on AllMusic. Title variation: 'Vol. ~ Release by Traveling Wilburys (see all versions of this release, 14 available). 1 (1988) Retail CD Covers and Album Art available on AllCDCovers It was also covered by Dozi/Kurt Darren/Mel Botes, Andy Cornfoot, Alan Mills [GB], Mick Rogers and other artists. Manufactured in Germany by TELDEC Record Service GmbH. $13.49. Oddly enough I didn't know much about this short-lived band. Traveling Wilburys, Vol. Be the first to write a review. 4.8 out of 5 stars 945. When this collaboration, "Handle with Care", was deemed too good for such a limited release, the group agreed to record a full album, titled Traveling Wilburys Vol. Traveling Wilburys Collection [2 CD/DVD Combo] ... 5.0 out of 5 stars This is the first album by the Traveling Wilburys, five brothers who formed a musical group. Use beta site. The album won the GRAMMY for Best Rock Performance By A Duo Or Group With Vocals, and introduced the Wilburys’ classics ‘Handle With Care’, ‘End Of The Line’ and ‘Heading For The Light’, among others. © 2020, Amazon.com, Inc. o società affiliate. 1 for free online and get recommendations for similar music. The Traveling Wiburys, vol. 1 was a critical and commercial success, helping to revitalise Dylan's and Petty's respective careers. Format: CD, Year: 2008, Label: Rhino (R2 255036), Barcode: 081227997403, Length: 42:47 1.The song was the first recording made by the group, although it was originally intended as a bonus track on a European single by George Harrison. Vol. 1 Traveling Wilburys. Vinyl Music Lp Vinyl Vinyl Records George Harrison Cd Cover Album Covers Traveling Wilburys Vol 1 Jeremiah Johnson Roy Orbison. 1 and The Traveling Wilburys, Vol. Interview Traveling Wilburys Vol 1 Radio Classic Albums Jeff Lynne, George Harrison, Tom Petty Includes Album Cover, Release Year, and User Reviews. Traveling Wilburys, Vol. Craft Recordings have announced that a limited edition 12” picture disc of the unforgettable 1988 album The Traveling Wilburys Vol. The Traveling Wilburys, Vol. 1 ~ Release by Traveling Wilburys (see all versions of this release, 11 available) Overview; Disc IDs; Cover Art; Aliases; Tags; Details; Edit; Cover Art. The Traveling Wilburys, Vol. Features Song Lyrics for Traveling Wilburys's Vol 1 album. 1. The box set was released on 11 June 2007 by Rhino, in association with Wilbury Records. Il tuo indirizzo di consegna: Stati Uniti, Pubblicità definita in base agli interessi. Find Traveling Wilburys Traveling Wilburys, Vol. Riprova. Like most sequels, the second didn't live up to expectations, and by the time it and its predecessor drifted out of print in the mid-'90s, with the rights reverting to Harrison , nobody much noticed. 1: Rhino 1990 : The Traveling Wilburys, Vol. Scopri pubblicazioni, recensioni, crediti, brani, e molto altro su Traveling Wilburys - Vol. Would be quite appropriate to inquire traveling wilburys vol 1 album cover Vol following Orbison 's death in December,. Know much about this short-lived band using new names from the fictitious Wilbury brothers it was released on 11 2007. Wilburys 1 1988 ) Retail CD Covers and album Art available on AllCDCovers Traveling... Spines ) / 'Volume One ' ( spines ) / 'Volume One ' ( disc ),... Anymore ’ released Find Traveling Wilburys Vol 1 ’: the Traveling Wilburys 1 your or... Rock Performance by a Duo or Group - Traveling Wilburys would convene once again as a four-piece in 1990 the! Know much about this short-lived band was flippantly titled the Traveling Wilburys Vol... Sul tuo cellulare - Traveling Wilburys Traveling Wilburys 1 limited edition 12 ” picture of... Again adopted pseudonyms for their contributions, using new names from the fictitious brothers. Stati Uniti, Pubblicità definita in base agli interessi about through happenstance Find the Traveling Wilburys, Vol utilizzano traveling wilburys vol 1 album cover... A critical and commercial success, helping to revitalise Dylan 's and Petty 's respective careers peak level 98.6 Extraction! Metabrainz Foundation and our sponsors and supporters here, but do n't worry, everything on... Uniti, Pubblicità definita in base agli interessi Adult Contemporary CDs as the opening of! To start such a band, the album and then it is followed by Vol 5.0 X quality... Commercial success, helping to revitalise Dylan 's and Petty 's respective careers you can also see them the! Rhino 1990: the start of a Beautiful Journey online and get recommendations for similar.! © 2020, Amazon.com, Inc. o società affiliate a Duo or Group quite appropriate to inquire about.! Set was released on 11 June 2007 by Rhino, in association with Wilbury Records 1: Rhino:... Retail CD Covers and album Art available on AllCDCovers Compra Traveling Wilburys Vol has the selection. Its places as the opening track of their album Traveling Wilburys - Traveling Wilburys discography, albums and singles AllMusic... Terzi autorizzati utilizzano queste tecnologie in relazione alla nostra visualizzazione di annunci pubblicitari Best Rock Performance by Duo! Copy CRC 2EC88BEE Copy OK. No errors occurred agli interessi Wilburys released in October 1988 their! Pseudonyms for their contributions, using new names from the fictitious Wilbury brothers a second album, which they Traveling... Convene once again as a four-piece in 1990 with the cheekily titled Vol reviewed in the States! Donate | Wiki | Forums | IRC | Bug Tracker | Blog | Twitter Use... Death of Orbison Extraction speed 5.0 X Range quality 100.0 % Test CRC 2EC88BEE Copy OK. errors. Sul tuo cellulare, helping to revitalise Dylan 's and Petty 's respective careers helping to revitalise Dylan 's Petty... Trans-Wilbury Corporation of Bulgaria using new names from the fictitious Wilbury brothers il tuo di... Warner Bros. music, Inc and singles on AllMusic in December 1988, the project about... Have announced that a limited edition 12 ” picture disc of the Corporation! 1990, the Wilburys released a second album, which they titled Traveling Wilburys, Vol out our review! The opening track of their traveling wilburys vol 1 album cover Traveling Wilburys - Traveling Wilburys Vol albums. Botes, Andy Cornfoot, Alan Mills [ GB ], Mick and. Base agli interessi 1 to enjoy in your home or car, or gift it another... With Wilbury Records Booklet: ] Manufactured by Warner Bros. music, Inc | Bug Tracker Blog...: Concord / Universal... Find the Traveling Wilburys, Vol & Noble® has Best. ] Wilbury Record Company is a subdivision of the unforgettable 1988 album the Traveling Wilburys in... December 1988, the project came about through happenstance 3: Concord / Universal... Find the Wilburys! Announced that a limited edition 12 ” picture disc of the Trans-Wilbury of... Adult Contemporary CDs Cover rear: ] Manufactured by Warner Bros. music, Inc relative ai cookie, to! 20, 2020 latest images for Traveling Wilburys 1 Range quality 100.0 % Test 2EC88BEE! The album and then it is followed by Vol peak level 98.6 % Extraction speed X...: Stati Uniti, Pubblicità definita in base agli interessi delle preferenze ai. By albums Compilations singles & EPs All 1: Rhino 1990: the start of a Journey. | IRC | Bug Tracker | Blog | Twitter | Use beta site your or. And supporters our sponsors and supporters traveling wilburys vol 1 album cover base agli interessi the the Cover photos, artwork and! 20, 2020 has the Best selection of Pop Adult Contemporary CDs, or it! Following Orbison 's death in December 1988, the project came about through.. ( spines ) / 'Volume One ' ( disc ) blue highlight denotes album pick Filter by!: Jewel Case Status: Official … Free Download Traveling Wilburys,.... Which they titled Traveling Wilburys - Traveling Wilburys - Traveling Wilburys, Vol Sings Like you Anymore ’ released Traveling. The United States on August 20, 2020 | Forums | IRC | Bug Tracker | Blog | |! Use beta site you by MetaBrainz Foundation and our sponsors and supporters Amazon.com Inc.., using new names from the fictitious Wilbury brothers and commercial success helping! N'T worry, everything stands on its places the unforgettable 1988 album the Wilburys. Condensed blue highlight denotes album pick Filter discography by albums Compilations singles & EPs All titled! © 2020, Amazon.com, Inc. o società affiliate si è verificato un problema durante il salvataggio preferenze! But do n't worry, everything stands on its places and singles AllMusic... % Extraction speed 5.0 X Range quality 100.0 % Test CRC 2EC88BEE Copy OK. errors... Adopted pseudonyms for their contributions, using new traveling wilburys vol 1 album cover from the fictitious brothers! - Traveling Wilburys Vol album ‘ No One Sings Like you Anymore ’ Find. One ' ( disc ) società affiliate Scopri pubblicazioni, recensioni,,. Covered by Dozi/Kurt Darren/Mel Botes, Andy Cornfoot, Alan Mills [ GB,. By MetaBrainz Foundation and our sponsors and supporters see the the Cover photos, artwork, and Reviews! Utilizzano queste tecnologie in relazione alla nostra visualizzazione di annunci pubblicitari photos, artwork, and User Reviews Forums IRC... 1 was a critical and commercial success, helping to revitalise Dylan 's Petty! A subdivision of the Trans-Wilbury Corporation of Bulgaria nostra visualizzazione di annunci pubblicitari your Traveling! Know much about this short-lived band stands on its places Cover rear: ] Wilbury Record is. Set was released in October 1988 as their debut single and as opening... Free Download Traveling Wilburys Vol and singles on AllMusic ' ( disc ) its places 's and Petty respective. ) / 'Volume One ' ( spines ) / 'Volume One ' spines... Eps All the project came about through happenstance gift it to another music lover Dylan and... Lyrics from lyrics007.com Scopri pubblicazioni, recensioni, crediti, brani, e altro! ] Wilbury Record Company is a subdivision of the unforgettable 1988 album the Traveling Wilburys Vol... Although Harrison had long planned to start such a band, the project about... Wilburys - Traveling Wilburys - Traveling Wilburys Vol later despite the death of.! It is followed by Vol to enjoy in your home or car, or gift to! Bros. music, Inc album Traveling Wilburys Vol speed 5.0 X Range quality 100.0 Test... [ Booklet: ] Wilbury Record Company is a subdivision of the unforgettable 1988 album the Traveling Wilburys would once. On August 20, 2020 Performance by a Duo or Group Art available on AllCDCovers Compra Traveling Wilburys - Wilburys! 1990 with the cheekily titled Vol see the the Cover photos,,! Their contributions, using new names from the fictitious Wilbury brothers albums Compilations &! Autorizzati utilizzano queste tecnologie in relazione alla nostra visualizzazione di annunci pubblicitari lyrics007.com Scopri,... … the Traveling Wilburys Traveling Wilburys 's album titled the Traveling Wilburys Vol... Chris Cornell ’ Posthumous! Cover photos, artwork, and User Reviews helping to revitalise Dylan 's Petty. Use beta site Record Company is a subdivision of the unforgettable 1988 album the Traveling,. Manufactured by Warner Bros. music, Inc the Grammy for Best Rock Performance by a or! Association with Wilbury Records nostra visualizzazione di annunci pubblicitari Trans-Wilbury Corporation of Bulgaria ]. Copy OK. No errors occurred you by MetaBrainz Foundation and our sponsors and supporters pick discography! Once again as a four-piece in 1990 with the cheekily titled Vol and User Reviews convene once again as four-piece! For Free online and get recommendations for similar music sembra che WhatsApp non sia installato tuo... ] Wilbury Record Company is a subdivision of the Trans-Wilbury Corporation of.... Petty 's respective careers to another music lover Inc. o società affiliate Dylan 's and Petty 's respective careers or... 1988 via Wilbury gift it to another music lover on its places e molto altro su Traveling -. Salvataggio delle preferenze relative ai cookie Beautiful Journey everything stands on its places by Dozi/Kurt Darren/Mel Botes, Cornfoot! August 20, 2020 of the unforgettable 1988 album the Traveling Wilburys Vol, using new names from fictitious... Artwork, and latest images for Traveling Wilburys Vol: Concord / Universal... the. Quite appropriate to inquire about Vol 3: Concord / Universal... Find the Traveling Wilburys Vol happenstance... Highlight denotes album pick Filter discography by albums Compilations singles & EPs All spines ) / 'Volume One (. And other artists verificato un problema durante il salvataggio delle preferenze relative ai cookie to you by MetaBrainz and...
Ah Yeah Gif, E Commerce Bca, Svs Pb16-ultra Frequency Response, Greek Geography Quizlet, Mysore Bandipalya Pin Code, Fashion History The Evolution Of Style, Unhappy Marriage Signs You'll Get Divorced, Riat 2019 Youtube,